Walt Disney | Gyakuten Saiban | One Piece Chapter 859

Black Wake 2018 720p WEB-DL DD 5 1 x264 Torrent Free Download

Seeders : 425   &   Leechers : 939      14-09-2018 (1 week)
Black Wake 2018 720p WEB-DL DD 5 1 x264 Torrent Download
Added: ago by moviezworldz ***** in Movies   970.1 MB   Hits : 28
Info Hash: 85E383FD19DB3EEA7C59E89C5DD1A5D1F47A616D Download
Black Wake 2018 720p WEB-DL DD 5 1 x264 Torrent Download

Anonymous and Direct Download movies , software , shows...

Fast Safe Anonymous
movies, software, shows...
Black Wake
Horror /Sci-Fi /Thriller  .   N/A   N/A/10
Director : Jeremiah Kipp  
Tags: Black  Wake  2018  720p  WEB-DL  DD  

Released:
N/A
Specialists gather in a top-secret facility to investigate a series of strange deaths on beaches along the Atlantic Ocean. One of the team's scientists (Nana Gouvea) examines video evidence to uncover a possible parasitic explanation for the fatalities. But when a .... See More determined detective (Tom Sizemore) sends her the crazed writings of a mysterious homeless man (Jonny Beauchamp), the scientist slowly learns that the actual threat may be more dangerous -- and far older -- than anyone ever imagined. Can she convince her colleagues (led by Eric Roberts) of the true danger before an ancient force rises from the sea to bring madness and death to all of humanity?

Torrent Description







General
Format : Matroska
Format version : Version 4 / Version 2
File size : 970 MiB
Duration : 1 h 31 min
Overall bit rate : 1 486 kb/s

Video
ID : 1
Format : AVC
Format/Info : Advanced Video Codec
Format profile : [email protected]
Format settings : CABAC / 4 Ref Frames
Format settings, CABAC : Yes
Format settings, RefFrames : 4 frames
Codec ID : V_MPEG4/ISO/AVC
Duration : 1 h 31 min
Bit rate : 1 100 kb/s
Width : 1 278 pixels
Height : 720 pixels
Display aspect ratio : 16:9
Frame rate mode : Constant
Frame rate : 23.976 (24000/1001) FPS
Color space : YUV
Chroma subsampling : 4:2:0
Bit depth : 8 bits
Scan type : Progressive
Bits/(Pixel*Frame) : 0.050
Stream size : 718 MiB (74%)
Writing library : x264 core 155 r2901 7d0ff22
Default : Yes
Forced : No

Audio
ID : 2
Format : AC-3
Format/Info : Audio Coding 3
Codec ID : A_AC3
Duration : 1 h 31 min
Bit rate mode : Constant
Bit rate : 384 kb/s
Channel(s) : 6 channels
Channel positions : Front: L C R, Side: L R, LFE
Sampling rate : 48.0 kHz
Frame rate : 31.250 FPS (1536 SPF)
Bit depth : 16 bits
Compression mode : Lossy
Stream size : 251 MiB (26%)
Language : English
Service kind : Complete Main
Default : Yes
Forced : No


Click To Enlarge Image










Sharing Widget


No Comments For This Torrent . Be The First to Comment

You must Login to Comment . Click Here to Login

Menu 1

Some content in menu 1.

Black Wake 2018 720p WEB-DL DD 5 1 x264 [MW] (Size: 970.1 MB)
  Black Wake 2018 720p WEB-DL DD 5 1 x264 [MW] 970.1 MB
tracker name
udp://tracker.leechers-paradise.org:6969/announce
udp://zer0day.ch:1337/announce
udp://open.demonii.com:1337/announce
udp://tracker.coppersurfer.tk:6969/announce
udp://exodus.desync.com:6969/announce
µTorrent compatible trackers list

Relative Torrents

Torrent Name Size Age SEED LEECH
Vice News Tonight 2018 09 20 720p WEBRipx264-eSc[TGx]
Posted by    mazemaze16   in   TV
502.3 MB 7 minutes 97 463
Snowfall S02E10 Education 1080p AMZN WEBDL DDP5 1 H 264-NTb[TGx]
Posted by    mazemaze16   in   TV
3.3 GB 7 minutes 67 528
Mr Mercedes S02E05 XviD-AFG[TGx]
Posted by    mazemaze16   in   TV
489.4 MB 7 minutes 280 739
Snowfall S02E10 WEBRip x264-eSc[TGx]
Posted by    mazemaze16   in   TV
303.6 MB 17 minutes 384 483
Snowfall S02E10 720p WEBRip x264-eSc[TGx
Posted by    mazemaze16   in   TV
1.2 GB 17 minutes 698 905